#TITLE:Black Rock Shooter;
#SUBTITLE:;
#ARTIST:Hatsune Miku;
#TITLETRANSLIT:;
#SUBTITLETRANSLIT:;
#ARTISTTRANSLIT:;
#CREDIT:;
#BANNER:Hatsune Miku - Black Rock Shooter-banner.jpg;
#BACKGROUND:Hatsune Miku - Black Rock Shooter-bg.jpg;
#LYRICSPATH:Hatsune Miku - Black Rock Shooter.lrc;
#CDTITLE:CDTitle.png;
#MUSIC:Hatsune Miku - Black Rock Shooter.ogg;
#OFFSET:1.100;
#SAMPLESTART:16.840;
#SAMPLELENGTH:12.000;
#SELECTABLE:YES;
#BPMS:0.000=140.000,36.000=165.000,276.000=155.000,276.500=145.000,277.000=135.000,277.500=125.000,278.000=120.000,280.000=105.000,284.000=165.000,301.000=82.500;
#STOPS:;
#BGCHANGES:306.000=Hatsune Miku - Black Rock Shooter-bg.jpg=1.000=0=0=1,
99999=-nosongbg-=1.000=0=0=0 // don't automatically add -songbackground-
;
// cache tags:
#FIRSTBEAT:12.000;
#LASTBEAT:306.125;
#SONGFILENAME:songs/Vocaloid Party/Hatsune Miku - Black Rock Shooter/Hatsune Miku - Black Rock Shooter.sm;
#HASMUSIC:1;
#HASBANNER:1;
#MUSICLENGTH:117.500;
// end cache tags

//---------------dance-single - ----------------
#NOTES:
     dance-single:
     :
     Challenge:
     9:
     0.744,0.749,0.255,0.111,0.502,569.000,30.000,13.000,9.000,0.000:
0000
0000
0000
0000
,
0000
0000
0000
0000
,
0000
0000
0000
0000
,
0002
0000
0203
0300
,
0002
0000
0000
0000
2003
0000
3000
0010
,
0200
0000
0301
0020
0000
0031
1000
0010
,
0000
0000
0000
0000
00L0
0000
0000
0100
,
2000
0000
0000
3100
0020
0000
0000
0030
,
1002
0000
L000
0000
0200
0000
0000
0303
,
0220
0000
0000
0030
,
0001
0000
0001
0000
0001
0000
0001
0000
0001
0000
0001
0000
0301
0010
0100
1000
,
0001
0000
1000
0000
0010
0000
0100
0001
0010
0000
0001
0000
0100
0000
0001
0000
,
0010
0000
0100
0000
1000
0000
0100
1000
0010
0000
0100
0000
0001
0000
0100
0000
,
0010
0000
1000
0000
0001
0000
0100
0001
0010
0000
0001
0000
1000
0000
0100
1000
,
0010
0100
0000
0001
1000
0000
0000
0010
1000
0010
0000
0100
0001
0000
0000
0010
,
0100
0000
1000
0000
0010
0000
0000
0100
0001
0000
0100
0000
0010
0000
1000
0000
,
0100
0000
1000
0000
0010
0000
0000
0100
0001
0000
0010
0000
0001
0010
0100
0000
,
0011
0010
0110
0010
0011
0010
0110
0010
,
0010
0000
0000
0001
0000
0000
0010
0000
0000
0000
0000
0000
0001
0000
0000
0100
0000
0000
0001
0000
0000
0000
0000
0000
1000
0000
0000
0010
0000
0000
1000
0000
0010
0000
1000
0000
0010
0000
0000
0000
0000
0000
0100
0000
0000
0000
0000
0000
,
0001
1000
0100
0000
1000
0001
0100
0000
,
0001
0000
0100
0000
0010
0000
0000
0100
0001
0000
0010
0000
0100
0000
0000
0000
,
1000
0100
0010
0001
0010
0100
1000
0000
,
1000
0000
0001
0000
0110
0000
0100
0000
0001
0100
0010
0000
0100
0000
0000
0000
,
0001
0100
0010
0000
1000
0001
0100
0000
,
0001
0000
0010
0000
0100
0000
0000
1000
0001
0000
0100
0000
0001
0000
0000
0000
,
0100
0010
0100
0001
1000
0010
0100
0001
,
1000
0000
0100
0000
1000
0000
0010
0100
0001
0000
0000
0001
0010
0000
0000
0010
,
0100
1000
1010
0000
0001
0010
0101
0000
,
1000
0000
0001
0000
0011
0000
0000
0010
0100
0000
1000
0000
1001
0000
0000
0000
,
0100
0010
0110
0000
1000
0010
0101
0000
,
0010
0000
1000
0000
1100
0000
0100
0000
0000
1000
0001
0000
1000
0000
0010
0000
,
1001
0100
0001
0000
1000
0010
0001
0000
,
0010
0000
1000
0000
0100
0000
0000
0010
0100
0000
1000
0000
0100
0000
0000
0000
,
1000
0100
0010
0100
0010
0001
0100
0010
,
1000
0010
0100
0010
0100
0000
0010
1000
0100
0010
0100
0000
0010
0001
0010
0000
,
0001
0000
1000
0000
0010
0000
0100
0010
1000
0000
0010
0000
0100
0000
0001
0000
,
0010
0000
0001
0000
0100
0000
0001
0100
0010
0000
0100
0000
0001
0000
0010
0000
,
1001
0000
0000
1000
0010
0000
0101
0000
0000
0010
0100
0000
1010
0000
0000
1000
,
0010
0000
0100
0000
0010
0000
0001
0000
0010
0000
1000
0000
0100
1000
0010
0000
,
0100
0000
0001
0000
0010
0000
0100
0010
0001
0000
0100
0000
0001
0000
0100
0000
,
0001
1000
0100
1000
0010
0000
0000
0100
0010
0000
1000
0000
0001
0000
0100
0000
,
0010
0000
0000
1000
0100
0000
0010
0000
0001
1000
0010
1000
0010
0000
0000
0010
,
0100
0010
1000
0000
0001
0000
0000
1000
0010
0000
0100
0000
0001
0000
0010
0000
,
0100
0000
0000
0000
1000
0000
0010
0100
0001
0000
0000
0000
0100
0000
0000
0000
,
0101
0000
0000
0000
0001
0000
0100
0010
0100
0000
0000
0000
1001
0000
0000
0000
,
1000
0001
0100
0001
0010
0000
0100
1000
,
0001
0010
0000
0000
0010
0000
0000
0000
0100
0000
0000
0000
1000
0010
1000
0000
,
1000
1000
1000
1000
1000
1000
1000
1000
,
1000
0000
1000
0000
1000
0000
1000
0000
1000
0000
1000
0000
1000
0000
1000
0100
,
1000
0000
0000
0010
0100
0000
0001
0000
0000
0100
0010
0100
0010
1000
0001
0100
,
0010
M000
0000
000M
M000
00M0
1100
0000
00M0
0M00
0001
M000
0101
00M0
M000
0000
,
1000
0000
0000
0000
0001
0000
1000
0100
1000
0000
0010
0000
0100
0000
0000
0000
,
0001
0000
0010
0000
0100
0000
0010
0100
0010
0000
0100
0000
1000
0000
0010
0000
,
0100
0001
0100
0010
1000
0000
0001
0100
0010
0000
1000
0000
0100
0000
1000
0000
,
0001
0100
0010
1000
0010
0000
0000
0010
0100
0000
0100
0001
1000
0000
0000
0000
,
0010
0000
1000
0000
0010
0000
0100
0010
0100
0000
0001
0000
0100
0000
0001
0000
,
1000
0000
0100
0000
0010
0000
0100
1000
0100
0000
1000
0001
1000
0000
0001
0000
,
1000
0100
1000
0010
0100
0000
0000
0010
0100
0001
0010
0000
0100
0000
0000
0000
,
1000
0000
0010
1000
0001
0000
0100
0010
0100
0001
0100
0000
0010
1000
0001
0000
,
1000
0001
1000
0010
0000
0101
0000
0000
,
0010
0000
0100
0010
1000
0000
0010
1000
0010
0000
0100
0001
0010
0000
0100
1000
,
0100
0010
0100
1001
0000
0001
0110
0000
,
0000
1000
0001
0100
0001
0000
1000
0000
,
0010
0000
0000
0000
1100
0000
0000
0010
0100
0000
0010
0000
1000
0000
0000
0100
,
0010
0100
0010
0000
0101
0000
0000
0001
1000
0000
0000
0000
1010
0000
0000
1000
,
0010
0000
0000
0000
0011
0000
0000
0001
0100
0000
0000
0000
0110
0000
0000
0100
,
0001
0000
0000
0001
1000
0000
0000
1000
0010
0100
0001
0010
0001
0000
0000
1000
,
0010
0000
0100
0000
0010
0000
0100
0010
1000
0000
0001
0000
0100
0000
0001
0010
,
0001
0000
1000
0000
0001
0000
0100
0010
0100
0000
0010
0000
0100
0001
0100
0000
,
0100
0100
0100
0100
0100
0100
0100
0100
,
0100
0000
0000
0000
0000
0000
0000
0L00
,
0001
0000
0100
0000
0010
0000
0100
0010
0100
0001
0010
0000
0001
0100
0010
0100
,
0010
0000
0100
0000
0001
0000
1000
0001
1000
0000
0001
0100
0001
0000
1000
0000
,
0010
0100
0001
1000
0001
0010
0001
1000
,
0010
0100
0010
0100
0010
0100
0010
0100
,
0010
0000
0000
0100
0000
0000
0010
0000
0000
0100
0000
0000
0020
0000
0000
0000
0000
0000
0000
0000
0000
0000
0000
0000
0000
0000
0000
0000
0000
0000
0100
0000
0000
0000
0000
0100
0000
0000
0000
0000
0100
0000
0000
0000
0000
0000
0100
0000
,
0000
0000
0000
0000
0000
0000
0000
0000
0000
0000
0000
0000
0000
0000
0000
0000
1030
0010
0000
0000
0000
0000
0000
0000
0000
0000
0000
0000
0000
0000
0000
0000
;

//---------------dance-single - ----------------
#NOTES:
     dance-single:
     :
     Hard:
     7:
     0.547,0.553,0.162,0.196,0.089,408.000,19.000,23.000,0.000,0.000:
0000
0000
0000
0000
,
0000
0000
0000
0000
,
0000
0000
0000
0000
,
0200
0000
0000
0000
0002
0000
0000
0300
,
0020
0000
0000
0003
0002
0000
0030
0013
,
0100
0000
1000
0001
0000
0010
0100
0010
,
0000
0000
0000
0000
0000
0000
0000
1000
,
0001
0000
0000
0001
0200
0000
0000
0000
,
0002
0000
0000
0300
2000
0000
0000
0003
,
0020
0000
0000
0000
0000
0000
0000
0030
,
3001
0010
0001
0100
0010
0100
0020
1000
,
0130
0001
0001
0000
1000
0010
0100
0000
,
0001
0010
0100
1000
0010
1000
0010
0000
,
0100
0000
0010
0000
1000
0000
0100
0000
0010
0000
0100
0000
0010
0000
0000
0100
,
1000
0000
0000
0100
1000
0000
0000
0100
1000
0000
0000
0100
1000
0000
0000
0100
,
1000
0001
0010
0000
0001
0010
0100
0000
,
1000
0000
0001
0000
0100
0000
0010
0000
0100
0000
0001
0000
0100
0010
0000
0000
,
1000
0100
0010
0001
1000
0100
0010
0001
,
2000
0001
0100
3010
0200
0010
0001
0310
,
1000
0010
1000
0001
,
0100
0010
1000
0010
,
0100
0000
0000
0010
0100
0000
0000
0001
,
0000
0000
1100
1000
0100
0000
0010
0000
,
0000
0001
0100
0001
,
0010
0100
1010
1000
,
0011
0000
0000
0100
0100
0000
0000
0001
,
0000
0000
0000
0010
1100
1000
0010
0100
,
0001
0000
0100
0010
0000
1000
0010
0000
,
0100
0001
0100
0000
0001
0010
0100
0000
,
0010
0000
0000
0001
1000
0000
1001
1000
,
0010
0000
0010
0100
0000
0000
0001
0100
,
0110
0000
0000
1000
0000
0001
0000
0100
,
0010
0000
0100
0010
0100
0001
0000
0000
,
1010
0000
0110
0100
0000
0010
0000
0000
,
1010
0000
0000
1000
0001
0000
0100
0000
,
0001
0000
0010
0000
0011
0010
0001
0000
,
0001
0010
0100
1000
0010
0000
1000
0000
,
0110
0000
0010
0010
0000
1000
1000
0001
,
0010
0100
0010
0000
0001
0000
1000
0010
,
0100
0001
0010
0001
0200
0000
0000
0300
,
0020
0000
2000
0030
3001
0000
1001
0000
,
1000
0010
0100
0010
0000
1000
0001
0000
,
1000
0001
0100
0000
0010
1000
0010
0100
,
0002
0000
1003
0010
2000
0000
3010
0010
,
0010
0100
0100
0100
0001
0000
1000
0000
,
0002
0000
0000
1000
1003
0000
0010
0100
,
0001
0000
0000
0000
1000
0000
0000
0000
0010
0000
0000
0000
1000
0100
1000
0000
,
0010
1000
0010
1000
0010
1000
0001
0100
,
0001
0100
0001
0100
0010
0100
0010
0100
,
1001
1000
0010
1000
0000
0001
1000
0001
,
0100
0000
0000
0010
0100
0010
1000
0000
,
0001
0000
0010
0000
0100
0000
0010
0000
0002
0000
0000
0003
0001
0000
0000
0000
,
0100
0010
1000
0100
0020
0000
0030
0001
,
0010
0000
0100
1000
0000
0001
0010
0100
,
0010
0000
0000
0001
0010
0000
0000
0100
1000
0000
0100
0000
1000
0000
0010
0000
,
0100
0100
0100
0001
0000
1000
0000
0001
,
0010
0100
0000
1000
0001
0100
0000
0010
,
0100
0000
0000
0010
0200
0000
0000
0000
0001
0000
0000
0310
0002
0000
0000
0000
,
1000
0000
0000
0013
0100
0000
0010
0000
1010
0000
1000
0000
0100
0000
0000
0000
,
0010
0001
1000
0100
0000
0010
0000
1000
,
0010
0000
0000
0100
0010
0000
1000
0001
,
0101
0100
0010
0110
0000
1000
1001
0000
,
0000
0010
0010
1000
0010
0000
0110
0000
,
0011
0000
1000
0000
0010
1000
0100
0000
,
1000
0010
1000
0100
1000
0001
0100
0000
,
0001
1000
0010
0100
0001
0100
0010
1000
,
0001
0000
0000
0001
1000
0000
0000
0001
1000
0000
0000
0001
1000
0000
0000
0001
,
1000
0010
0100
0010
0100
0001
1000
0000
,
0010
0000
0100
0000
0001
0000
1000
0000
0010
0000
0100
0000
0010
0100
0000
0000
,
0001
1000
0001
1000
0001
1000
0001
1000
,
0001
0000
0000
0000
0000
0000
0000
2000
,
0020
0000
0000
0000
3030
0000
0000
0000
0000
0000
0000
0000
1000
0100
0010
0001
,
1000
0000
0000
0000
0001
0000
0100
0001
,
0100
0010
0100
0001
1000
0001
0100
0010
,
1000
0001
1000
0010
0100
0001
0100
0010
,
0100
0001
0100
0001
0100
0000
0000
0000
0000
0000
0000
0000
0000
0000
0000
0000
,
0000
0000
0100
0000
;

//---------------dance-single - ----------------
#NOTES:
     dance-single:
     :
     Medium:
     5:
     0.415,0.488,0.230,0.187,0.000,292.000,27.000,22.000,0.000,0.000:
0000
0000
0000
0000
,
0000
0000
0000
0000
,
0000
0000
0000
0000
,
1000
0000
0001
0000
,
1000
0000
0000
0000
0010
0000
0000
0100
,
0010
0000
0100
0001
0000
1000
0010
0100
,
0000
0000
0000
0000
0000
0000
0000
0010
,
1000
0000
0000
0001
0100
0000
0000
0000
,
0001
0000
1000
0000
,
0100
0000
0000
0000
,
1000
0000
1000
0000
0100
0100
0010
0001
,
0100
0000
0010
0000
0000
0100
0001
0000
,
0100
0001
0010
0000
0000
0001
1000
0000
,
0100
0010
0100
1000
,
0002
0203
0320
0230
,
0301
1000
0001
0000
0100
0000
0010
0000
,
1000
0010
1000
0000
0100
0000
1000
0000
,
0001
1000
0001
0000
1000
0100
1000
0000
,
1000
0001
1000
0010
0100
0000
0010
0000
,
0100
0010
1000
0001
,
1100
0000
0000
0001
0000
0000
0110
0000
,
0110
0000
0000
0100
0000
0000
1010
0000
,
2010
0000
0010
0000
,
3001
0000
0000
1010
0000
0000
0110
0000
,
0100
0000
0010
0100
,
0110
0110
1001
1001
,
0210
0000
0000
0310
0100
0000
0010
0000
,
1000
0001
0000
0100
,
0001
0000
1000
1000
,
1001
0010
0100
0000
,
0020
0000
0000
0100
0000
0030
2010
0000
,
3001
0000
0000
1000
0000
0010
0000
0000
,
0010
0000
0000
0100
0000
0001
0000
0000
,
1100
0011
1100
0011
,
1000
0001
1000
0000
0001
0100
0001
0100
,
0001
0010
0100
1000
,
0001
0100
0010
1000
,
1010
0000
0000
0110
0000
0000
0101
0000
,
0010
1000
0010
0100
0010
0000
1000
0001
,
0100
0010
0100
0000
,
0001
1000
0010
0100
,
0001
0000
0000
1001
0000
0000
0001
0000
,
1000
0001
0100
0000
0010
0100
0010
0100
,
0001
0000
1000
0010
1000
0000
0001
0000
,
0100
0010
1000
0001
,
0100
0000
0000
0000
0001
0000
0000
0100
,
0010
0000
1000
0000
,
0002
0100
0023
0001
,
0200
0000
0030
0000
0002
0000
0000
0300
,
0013
0000
0010
0001
0000
0010
0100
0010
,
0100
0000
1000
0001
,
0010
0000
0000
0000
0100
1000
0010
0000
,
0010
0000
0000
0000
1000
0001
0100
0000
,
0010
0000
1000
0000
0100
1000
0010
0100
,
0002
0000
0023
0000
0032
1000
1000
0003
,
0002
0000
0000
0000
0000
0200
0003
0301
,
1000
0000
0000
0100
0010
0100
0000
1000
,
0001
0010
0100
1000
,
0010
1000
0010
1000
0010
0000
0010
0000
,
0210
0000
0000
0000
0000
0001
0000
0000
,
0310
0000
0000
0010
0100
0000
0001
1000
,
0001
0000
0000
1001
0000
0000
1001
0000
,
0000
1000
0001
0100
0010
0000
1000
0000
,
0010
0000
0100
0000
0000
0001
1000
0000
,
0100
0000
0010
0000
0001
0100
0001
0000
,
0010
0100
0010
0000
0001
1000
0001
0010
,
0200
2300
3200
0320
,
0031
1000
0001
0000
1000
0100
1000
0000
,
0001
0000
1000
0000
0010
0100
0010
0000
,
1000
0001
0100
0010
,
0110
0000
0000
0000
0000
0000
0000
0100
,
0001
0000
1000
0000
1000
0001
1000
0001
,
1000
0000
0010
0000
0100
0010
0100
0000
,
0010
1000
0010
0100
,
0001
0100
0010
1000
,
0000
1010
0000
0000
,
0000
0000
1000
0000
;

//---------------dance-single - ----------------
#NOTES:
     dance-single:
     :
     Easy:
     3:
     0.209,0.293,0.026,0.145,0.000,152.000,3.000,17.000,0.000,0.000:
0000
0000
0000
0000
,
0000
0000
0000
0000
,
0000
0000
0000
0000
,
0000
0000
0000
0000
,
0000
0000
0000
0000
,
0000
0000
0000
0000
,
0000
0000
0000
0000
,
0000
0000
0000
0000
,
0000
0000
0000
0000
,
0000
0000
0000
0000
,
0010
0001
0010
0001
,
0020
0000
0000
0000
,
0032
0000
0000
0203
,
0320
0000
0000
0000
,
2030
0001
0010
0001
,
3020
0000
0000
0000
,
2030
0000
0000
3020
,
0130
0001
0010
0100
,
1000
0100
1000
0100
,
0010
0000
0100
0000
,
1000
0100
0010
0000
,
0001
0000
0100
0000
,
0010
0000
1000
0001
,
1000
0000
0010
0000
,
0100
0001
0010
0000
,
0100
0000
0010
0000
,
0001
0000
1000
0000
,
0001
0010
0000
0001
,
1000
0000
1000
0001
,
1000
0000
0010
0000
,
0100
0000
0001
0000
,
1000
0000
0010
0100
,
0010
0000
1000
0000
,
0001
0100
0001
0100
,
0001
0000
1001
0000
,
2000
0000
0002
3000
,
0203
0000
0320
0000
,
1030
0010
0100
0010
,
0200
0000
0000
0300
,
0001
0000
2000
0000
,
3010
0000
0100
0100
,
0200
0000
0000
0000
,
0301
0000
1000
0000
,
0010
0000
0100
0000
,
0001
0000
1000
0000
,
0020
0000
0230
0000
,
0310
0010
1000
0000
,
0001
1000
0001
1000
,
0001
0000
0100
0000
,
0010
0000
0000
0000
,
1000
0000
0000
0000
,
1001
0000
1000
0000
,
0010
0000
0100
0000
,
0001
1000
0001
0000
,
0000
0000
0000
0100
,
0001
0000
0100
0000
,
0010
1000
0100
0000
,
1000
0000
0001
0000
,
0100
0001
0100
0001
,
0100
0000
0010
0000
,
1000
0001
0010
0100
,
0010
0000
0000
0000
,
0000
0001
0100
0010
,
0100
0000
0000
0000
,
0010
0000
0000
1000
,
0100
0000
0000
0000
,
0010
0001
0100
0010
,
1000
0000
0000
0000
,
0001
0000
0000
0100
,
0010
0100
0001
1000
,
0010
0000
0000
0000
,
0100
0000
0000
0000
,
0010
0000
1000
0000
,
0010
0000
0100
0000
,
0001
0000
1000
0001
,
1000
0000
0000
0000
,
0000
0000
1001
0000
;

//---------------dance-single - ----------------
#NOTES:
     dance-single:
     :
     Beginner:
     1:
     0.091,0.163,0.034,0.000,0.000,71.000,4.000,0.000,0.000,0.000:

0000
0000
0000
0000
,
0000
0000
0000
0000
,
0000
0000
0000
0000
,
0000
0000
0000
0000
,
0000
0000
0000
0000
,
0000
0000
0000
0000
,
0000
0000
0000
0000
,
0000
0000
0000
0000
,
0000
0000
0000
0000
,
0000
0000
0000
0000
,
0000
0000
0000
0000
,
1000
0000
0000
0000
,
0010
0000
0000
0000
,
0100
0000
0000
0000
,
0001
0000
1000
0000
,
0001
0000
0000
0000
,
0100
0000
0000
0000
,
0001
0000
0000
0000
,
0000
0000
0000
0000
,
0000
1000
0000
0000
,
0001
0000
0000
0000
,
1000
0000
0000
0000
,
0010
0000
0000
0000
,
0100
0000
0000
0000
,
0001
0000
0000
0000
,
1000
0000
0000
0000
,
0000
0000
0000
0000
,
0110
0000
0000
0000
,
0001
0000
0000
0000
,
0100
0000
0000
0000
,
0010
0000
0000
0000
,
1001
0000
0000
0000
,
0001
0000
0000
0000
,
1000
0000
0000
0000
,
0000
0000
0000
0000
,
0010
0000
0000
0000
,
0100
0000
0001
0000
,
1000
0000
0000
0000
,
0001
0000
0000
0000
,
0100
0000
0000
0000
,
0010
0000
1000
0000
,
0010
0000
0000
0000
,
0000
0000
0000
0000
,
0100
0000
0001
0000
,
0100
0000
0000
0000
,
0010
0000
0000
0000
,
1000
0000
0001
0000
,
0100
0000
0000
0000
,
0010
0000
0100
0000
,
0010
0000
0000
0000
,
0000
0000
0000
0000
,
0001
0000
1000
0000
,
0001
0000
1000
0000
,
0001
0000
0000
0000
,
0000
0000
0000
0000
,
1000
0000
0000
0000
,
0010
0000
0000
0000
,
0100
0000
0001
0000
,
0100
0000
0001
0000
,
0100
0000
0000
0000
,
0110
0000
0000
0000
,
1001
0000
0000
0000
,
0000
0000
0000
0000
,
0100
0000
0000
0000
,
0010
0000
0000
0000
,
1000
0000
0000
0000
,
0001
0000
0100
0000
,
0001
0000
0000
0000
,
1000
0000
0000
0000
,
0010
0000
0000
0000
,
0000
0000
0000
0000
,
1000
0000
0000
0000
,
0001
0000
0100
0000
,
0010
0000
1000
0000
,
0010
0000
1000
0000
,
0000
0000
0000
0000
,
0000
0000
1000
0000
;
